初音ミク吧 关注:1,086,036贴子:10,340,452

miku 39 的感谢祭 1.55g 1024*764

只看楼主收藏回复

初音未来正版音乐竞速手游「初音速」今日全平台公测!

「初音速」-网易正版音乐手游今日公测!全服应援赛_冲级就送SSR!!正版周边手办免费送…3D换装_AR玩法让你突破次元壁,打造专属歌姬,圣诞活动现已开启,海量礼品等你领>>

2017-12-19 06:38 广告
1024的怎么会这么小?


收起回复
举报|2楼2013-03-10 12:45
    靠 怎么没速度 你们有吗


    收起回复
    举报|3楼2013-03-10 12:53
      没人吗


      回复
      举报|4楼2013-03-10 12:55
        有人,收下。

        ——来自初音ミク吧客户端,初音ミク,把你MikuMiku掉哦!!!


        回复
        举报|来自Android客户端5楼2013-03-10 12:56




               ————Mozilla/5.0 (Windows NT 6.1; WOW64; rv:19.0) Gecko/20100101 Firefox/19.0


          收起回复
          举报|6楼2013-03-10 12:56

            有人哟,下载中


            回复
            举报|7楼2013-03-10 12:58
              LZ自己的,还是找了别的帖子里的?


              收起回复
              举报|8楼2013-03-10 12:59
                如果不能放 把后缀名改成mp4


                回复
                举报|9楼2013-03-10 13:17
                  确定是?


                  收起回复
                  举报|10楼2013-03-10 13:21

                    电脑玩初音速-选51模拟器 大屏体验音乐竞速手游!

                    初音速手游电脑版-用51模拟器 操作简单 殿堂级曲目收集,实时竞速PK.51模拟器——电脑玩手游 双端共进度 轻松升级 支持加速 支持多开 .

                    2017-12-19 06:38 广告
                    你确定真的是?


                    收起回复
                    举报|11楼2013-03-10 13:29
                      速度慢 才50啊 加速都开了……


                      没速度哦


                      收起回复
                      举报|13楼2013-03-10 13:37
                        有水印吗?放些参数来看看


                        啊讷

                        ーー初音ミクーー
                        だいすき 
                        来自はつねみく吧


                        回复
                        举报|来自Android客户端15楼2013-03-10 13:42
                          - -今年不是叫感谢祭吧


                          收起回复
                          举报|16楼2013-03-10 13:42
                            这么快又是一场演唱会……


                            回复
                            举报|来自手机贴吧17楼2013-03-10 13:54

                              貌似是。。。我没下完。。。速度好慢,才最高80KB,求提供会员


                              收起回复
                              举报|18楼2013-03-10 13:55
                                先留个名

                                ——来自初音ミク吧客户端,把你MikuMiku掉哦!!!


                                回复
                                举报|来自Android客户端19楼2013-03-10 13:57
                                  没人吐槽分辨率比例…


                                  收起回复
                                  举报|来自手机贴吧20楼2013-03-10 14:01
                                    好神速~


                                    回复
                                    举报|21楼2013-03-10 14:01
                                      迅雷会员速度还可以


                                      收起回复
                                      举报|22楼2013-03-10 14:03
                                        这速度。。。下到什么时候呀!


                                        收起回复
                                        举报|23楼2013-03-10 14:16


                                          回复
                                          举报|来自Android客户端24楼2013-03-10 14:22
                                            我正在下大水怪的……32G……………………


                                            收起回复
                                            举报|25楼2013-03-10 14:27
                                              2013年39?还没字幕吧


                                              收起回复
                                              举报|来自手机贴吧26楼2013-03-10 15:12
                                                下载完成,音质不是很理想。
                                                H:\演唱会\初音未来\miku 39.mp4
                                                General
                                                Complete name : H:\演唱会\初音未来\miku 39.mp4
                                                Format : MPEG-4
                                                Format profile : Base Media
                                                Codec ID : isom
                                                File size : 1.55 GiB
                                                Duration : 3h 29mn
                                                Overall bit rate mode : Variable
                                                Overall bit rate : 1 061 Kbps
                                                Video #1
                                                ID : 1
                                                Format : AVC
                                                Format/Info : Advanced Video Codec
                                                Format profile : High@L3.1
                                                Format settings, CABAC : Yes
                                                Format settings, ReFrames : 4 frames
                                                Codec ID : avc1
                                                Codec ID/Info : Advanced Video Coding
                                                Duration : 3h 29mn
                                                Bit rate mode : Variable
                                                Bit rate : 1 000 Kbps
                                                Width : 1 024 pixels
                                                Height : 576 pixels
                                                Display aspect ratio : 16:9
                                                Frame rate mode : Constant
                                                Frame rate : 23.000 fps
                                                Color space : YUV
                                                Chroma subsampling : 4:2:0
                                                Bit depth : 8 bits
                                                Scan type : Progressive
                                                Bits/(Pixel*Frame) : 0.074
                                                Stream size : 1.45 GiB (93%)
                                                Writing library : x264 core 124
                                                Encoding settings : cabac=1 / ref=3 / deblock=1:0:0 / analyse=0x3:0x113 / me=hex / subme=0 / psy=1 / psy_rd=1.00:0.00 / mixed_ref=1 / me_range=16 / chroma_me=1 / trellis=1 / 8x8dct=1 / cqm=0 / deadzone=21,11 / fast_pskip=1 / chroma_qp_offset=0 / threads=1 / sliced_threads=0 / nr=0 / decimate=1 / interlaced=0 / bluray_compat=0 / constrained_intra=0 / bframes=3 / b_pyramid=2 / b_adapt=1 / b_bias=0 / direct=1 / weightb=1 / open_gop=0 / weightp=2 / keyint=250 / keyint_min=23 / scenecut=40 / intra_refresh=0 / rc_lookahead=40 / rc=cbr / mbtree=1 / bitrate=1000 / ratetol=1.0 / qcomp=0.60 / qpmin=0 / qpmax=69 / qpstep=4 / vbv_maxrate=1000 / vbv_bufsize=1400 / nal_hrd=none / ip_ratio=1.40 / aq=1:1.00
                                                Audio #2
                                                ID : 2
                                                Format : AAC
                                                Format/Info : Advanced Audio Codec
                                                Format profile : LC
                                                Codec ID : 40
                                                Duration : 3h 29mn
                                                Source duration : 3h 29mn
                                                Bit rate mode : Variable
                                                Bit rate : 64.2 Kbps
                                                Maximum bit rate : 1 000 Kbps
                                                Channel(s) : 2 channels
                                                Channel positions : Front: L R
                                                Sampling rate : 48.0 KHz
                                                Compression mode : Lossy
                                                Stream size : 96.2 MiB (6%)
                                                Source stream size : 96.2 MiB (6%)
                                                mdhd_Duration : 12581675



                                                收起回复
                                                举报|27楼2013-03-10 15:18
                                                  马一个,谢谢楼主


                                                  收起回复
                                                  举报|28楼2013-03-10 15:27
                                                    没速度肿么办....


                                                    收起回复
                                                    举报|29楼2013-03-10 15:40