rewrite吧 关注:21,349贴子:2,098,119

[120727]Rewrite Harvest festa! OST原声集[无损+MP3+BK]

只看楼主收藏回复



『Rewrite Harvest festa!』にて新规に追加した曲を収录!
収获祭を彩る、数々の楽曲をお届けします。

曲目
01.Harvest
02.irrigated land
03.萌芽
04.ムーンブライト
05.Quaesitor
06.Fight for nowhere
07.winners!
08.Redemptor
09.爱を灌ぐ
10.夜露
11.ささやかなはじまり
12.irrigated land ~echo~
13.Harvest Game size Ver
14.ささやかなはじまり Game size Ver



320K+BK
ht tp://115.com/file/ank7ivrt#



WAV+CUE+BK
ht tp://115.com/file/e75knsv4#


收起回复
举报|2楼2012-07-30 16:32
    0
    好物


    回复
    举报|3楼2012-07-30 16:33
      0



      回复
      举报|4楼2012-07-30 16:33
        0


        回复
        举报|5楼2012-07-30 16:34
          0


          回复
          举报|6楼2012-07-30 16:34
            0


            回复
            举报|7楼2012-07-30 16:35
              0
              前排围观大神级ID!


              回复
              举报|8楼2012-07-30 16:36
                0
                马可


                回复
                举报|来自手机贴吧9楼2012-07-30 16:37
                  0
                  马克,明天去下


                  回复
                  举报|来自Android客户端10楼2012-07-30 16:41
                    0
                    听说来玩的都领了T豆! 贴吧用户专享福利,你领了么?
                    • 商业推广
                    就等这个啊


                    回复
                    举报|11楼2012-07-30 16:42
                      0
                      miku酱总是过来发CD资源的说


                      收起回复
                      举报|12楼2012-07-30 17:07
                        0


                        回复
                        举报|13楼2012-07-30 17:08
                          0
                          OH YEAH~


                          回复
                          举报|14楼2012-07-30 17:15
                            0
                            miku酱威武~


                            回复
                            举报|15楼2012-07-30 17:16
                              0
                              感谢


                              回复
                              举报|16楼2012-07-30 17:23
                                0
                                顶一个


                                回复
                                举报|来自Android客户端17楼2012-07-30 17:38
                                  0
                                  感谢
                                  膜拜神ID


                                  回复
                                  举报|18楼2012-07-30 17:48
                                    0
                                    MIKU拯救世界


                                    回复
                                    举报|19楼2012-07-30 18:09
                                      0


                                      回复
                                      举报|20楼2012-07-30 18:35
                                        0
                                        顶起。。。好物


                                        回复
                                        举报|21楼2012-07-30 18:48
                                          0
                                          马克~


                                          回复
                                          举报|22楼2012-07-30 19:41
                                            0
                                            神ID啊。。


                                            回复
                                            举报|23楼2012-07-30 20:07
                                              0
                                              好快啊...


                                              回复
                                              举报|24楼2012-07-30 20:54
                                                0
                                                资源帝好


                                                回复
                                                举报|25楼2012-07-30 21:00
                                                  0
                                                  顶起~好物


                                                  回复
                                                  举报|26楼2012-07-30 21:26
                                                    0
                                                    一直以来 辛苦了


                                                    回复
                                                    举报|27楼2012-07-30 21:52
                                                      0
                                                      wav的cue没有曲名..
                                                      请自行补上..

                                                      REM DISCID BB0BB50E
                                                      REM COMMENT "ExactAudioCopy v1.0b3"
                                                      FILE "KSLA-0081.wav" WAVE
                                                      TRACK 01 AUDIO
                                                      TITLE "Harvest"
                                                      INDEX 01 00:00:00
                                                      TRACK 02 AUDIO
                                                      TITLE "irrigated land"
                                                      INDEX 00 04:07:73
                                                      INDEX 01 04:09:73
                                                      TRACK 03 AUDIO
                                                      TITLE "萌芽"
                                                      INDEX 00 07:40:26
                                                      INDEX 01 07:42:26
                                                      TRACK 04 AUDIO
                                                      TITLE "ムーンブライト"
                                                      INDEX 00 12:00:15
                                                      INDEX 01 12:02:15
                                                      TRACK 05 AUDIO
                                                      TITLE "Quaesitor"
                                                      INDEX 00 15:34:33
                                                      INDEX 01 15:36:33
                                                      TRACK 06 AUDIO
                                                      TITLE "Fight for nowhere"
                                                      INDEX 00 19:00:52
                                                      INDEX 01 19:02:52
                                                      TRACK 07 AUDIO
                                                      TITLE "winners!"
                                                      INDEX 00 22:00:72
                                                      INDEX 01 22:02:72
                                                      TRACK 08 AUDIO
                                                      TITLE "Redemptor"
                                                      INDEX 00 23:07:15
                                                      INDEX 01 23:09:15
                                                      TRACK 09 AUDIO
                                                      TITLE "爱を灌ぐ"
                                                      INDEX 00 26:48:34
                                                      INDEX 01 26:50:34
                                                      TRACK 10 AUDIO
                                                      TITLE "夜露"
                                                      INDEX 00 31:40:02
                                                      INDEX 01 31:42:02
                                                      TRACK 11 AUDIO
                                                      TITLE "ささやかなはじまり"
                                                      INDEX 00 36:28:20
                                                      INDEX 01 36:30:20
                                                      TRACK 12 AUDIO
                                                      TITLE "irrigated land ~echo~"
                                                      INDEX 00 42:24:38
                                                      INDEX 01 42:26:38
                                                      TRACK 13 AUDIO
                                                      TITLE "Harvest Game size Ver"
                                                      INDEX 00 45:56:66
                                                      INDEX 01 45:58:66
                                                      TRACK 14 AUDIO
                                                      TITLE "ささやかなはじまり Game size Ver"
                                                      INDEX 00 47:35:47
                                                      INDEX 01 47:37:47


                                                      收起回复
                                                      举报|28楼2012-07-30 21:57
                                                        0
                                                        米库miku,不是说要去香格里拉旅游的嘛?QAQ


                                                        收起回复
                                                        举报|29楼2012-07-30 22:33
                                                          0
                                                          神样的速度...


                                                          回复
                                                          举报|30楼2012-07-30 22:59
                                                            0